  0
SECTION
  2
HEADER
  9
$ACADVER
  1
AC1009
  9
$DWGCODEPAGE
  3
ansi_932
  9
$INSBASE
 10
0.0
 20
0.0
 30
0.0
  9
$EXTMIN
 10
-49.4036465
 20
-23.16819781
 30
-0.00152582
  9
$EXTMAX
 10
122.03033021
 20
61.02004703
 30
0.00000003
  9
$LIMMIN
 10
0.0
 20
0.0
  9
$LIMMAX
 10
420.0
 20
297.0
  9
$ORTHOMODE
 70
     0
  9
$REGENMODE
 70
     1
  9
$FILLMODE
 70
     1
  9
$QTEXTMODE
 70
     0
  9
$MIRRTEXT
 70
     1
  9
$DRAGMODE
 70
     2
  9
$LTSCALE
 40
10.0
  9
$OSMODE
 70
   511
  9
$ATTMODE
 70
     1
  9
$TEXTSIZE
 40
3.0
  9
$TRACEWID
 40
1.0
  9
$TEXTSTYLE
  7
YOKO
  9
$CLAYER
  8
245
  9
$CELTYPE
  6
BYLAYER
  9
$CECOLOR
 62
   256
  9
$DIMSCALE
 40
1.0
  9
$DIMASZ
 40
2.23
  9
$DIMEXO
 40
0.5
  9
$DIMDLI
 40
2.5
  9
$DIMRND
 40
0.0
  9
$DIMDLE
 40
0.0
  9
$DIMEXE
 40
1.0
  9
$DIMTP
 40
0.0
  9
$DIMTM
 40
0.0
  9
$DIMTXT
 40
2.8
  9
$DIMCEN
 40
0.0
  9
$DIMTSZ
 40
0.0
  9
$DIMTOL
 70
     0
  9
$DIMLIM
 70
     0
  9
$DIMTIH
 70
     0
  9
$DIMTOH
 70
     0
  9
$DIMSE1
 70
     0
  9
$DIMSE2
 70
     0
  9
$DIMTAD
 70
     3
  9
$DIMZIN
 70
     8
  9
$DIMBLK
  1

  9
$DIMASO
 70
     1
  9
$DIMSHO
 70
     1
  9
$DIMPOST
  1

  9
$DIMAPOST
  1

  9
$DIMALT
 70
     0
  9
$DIMALTD
 70
     2
  9
$DIMALTF
 40
25.4
  9
$DIMLFAC
 40
1.0
  9
$DIMTOFL
 70
     1
  9
$DIMTVP
 40
0.0
  9
$DIMTIX
 70
     1
  9
$DIMSOXD
 70
     0
  9
$DIMSAH
 70
     1
  9
$DIMBLK1
  1
OPEN
  9
$DIMBLK2
  1
OPEN
  9
$DIMSTYLE
  2
BIGT
  9
$DIMCLRD
 70
   256
  9
$DIMCLRE
 70
   256
  9
$DIMCLRT
 70
    40
  9
$DIMTFAC
 40
1.0
  9
$DIMGAP
 40
1.0
  9
$LUNITS
 70
     2
  9
$LUPREC
 70
     3
  9
$SKETCHINC
 40
1.0
  9
$FILLETRAD
 40
6.0
  9
$AUNITS
 70
     0
  9
$AUPREC
 70
     3
  9
$MENU
  1
.
  9
$ELEVATION
 40
0.0
  9
$PELEVATION
 40
0.0
  9
$THICKNESS
 40
0.0
  9
$LIMCHECK
 70
     0
  9
$CHAMFERA
 40
10.0
  9
$CHAMFERB
 40
10.0
  9
$SKPOLY
 70
     0
  9
$TDCREATE
 40
2455112.456912234
  9
$TDUPDATE
 40
2455211.364109491
  9
$TDINDWG
 40
0.0573316204
  9
$TDUSRTIMER
 40
2455750.632523437
  9
$USRTIMER
 70
     1
  9
$ANGBASE
 50
0.0
  9
$ANGDIR
 70
     0
  9
$PDMODE
 70
    35
  9
$PDSIZE
 40
-5.0
  9
$PLINEWID
 40
0.0
  9
$COORDS
 70
     1
  9
$SPLFRAME
 70
     0
  9
$SPLINETYPE
 70
     6
  9
$SPLINESEGS
 70
     8
  9
$ATTDIA
 70
     0
  9
$ATTREQ
 70
     1
  9
$HANDLING
 70
     1
  9
$HANDSEED
  5
178D
  9
$SURFTAB1
 70
     6
  9
$SURFTAB2
 70
     6
  9
$SURFTYPE
 70
     6
  9
$SURFU
 70
     6
  9
$SURFV
 70
     6
  9
$UCSNAME
  2

  9
$UCSORG
 10
0.0
 20
0.0
 30
0.0
  9
$UCSXDIR
 10
1.0
 20
0.0
 30
0.0
  9
$UCSYDIR
 10
0.0
 20
1.0
 30
0.0
  9
$PUCSNAME
  2

  9
$PUCSORG
 10
0.0
 20
0.0
 30
0.0
  9
$PUCSXDIR
 10
1.0
 20
0.0
 30
0.0
  9
$PUCSYDIR
 10
0.0
 20
1.0
 30
0.0
  9
$USERI1
 70
     1
  9
$USERI2
 70
     0
  9
$USERI3
 70
     0
  9
$USERI4
 70
     0
  9
$USERI5
 70
     0
  9
$USERR1
 40
0.0
  9
$USERR2
 40
0.0
  9
$USERR3
 40
0.0
  9
$USERR4
 40
0.0
  9
$USERR5
 40
0.0
  9
$WORLDVIEW
 70
     1
  9
$SHADEDGE
 70
     3
  9
$SHADEDIF
 70
    70
  9
$TILEMODE
 70
     1
  9
$MAXACTVP
 70
    16
  9
$PLIMCHECK
 70
     0
  9
$PEXTMIN
 10
1.000000000000000E+20
 20
1.000000000000000E+20
 30
1.000000000000000E+20
  9
$PEXTMAX
 10
-1.000000000000000E+20
 20
-1.000000000000000E+20
 30
-1.000000000000000E+20
  9
$PLIMMIN
 10
0.0
 20
0.0
  9
$PLIMMAX
 10
420.0
 20
297.0
  9
$UNITMODE
 70
     0
  9
$VISRETAIN
 70
     0
  9
$PLINEGEN
 70
     0
  9
$PSLTSCALE
 70
     1
  0
ENDSEC
  0
SECTION
  2
TABLES
  0
TABLE
  2
VPORT
 70
     1
  0
VPORT
  2
*ACTIVE
 70
     0
 10
0.0
 20
0.0
 11
1.0
 21
1.0
 12
117.3358161440327
 22
2.2776622274073
 13
0.0
 23
0.0
 14
7.0
 24
7.0
 15
7.0
 25
7.0
 16
0.0
 26
0.0
 36
1.0
 17
0.0
 27
0.0
 37
0.0
 40
65.32927562049588
 41
2.118942731277533
 42
50.0
 43
0.0
 44
0.0
 50
0.0
 51
0.0
 71
    16
 72
  2000
 73
     1
 74
     0
 75
     0
 76
     0
 77
     0
 78
     0
  0
ENDTAB
  0
TABLE
  2
LTYPE
 70
     3
  0
LTYPE
  2
CONTINUOUS
 70
     0
  3
Solid line
 72
    65
 73
     0
 40
0.0
  0
LTYPE
  2
CENTER2
 70
     0
  3
___ _ ___ _ ___ _ ___ _ ___ _ ___ _ ___ _ ___ _
 72
    65
 73
     4
 40
1.125
 49
0.75
 49
-0.125
 49
0.125
 49
-0.125
  0
ENDTAB
  0
TABLE
  2
LAYER
 70
     9
  0
LAYER
  2
0
 70
     0
 62
     7
  6
CONTINUOUS
  0
LAYER
  2
240
 70
     0
 62
     4
  6
CONTINUOUS
  0
LAYER
  2
241
 70
     0
 62
   211
  6
CONTINUOUS
  0
LAYER
  2
245
 70
     0
 62
     2
  6
CENTER2
  0
LAYER
  2
250
 70
     0
 62
     3
  6
CONTINUOUS
  0
LAYER
  2
DEFPOINTS
 70
     0
 62
     7
  6
CONTINUOUS
  0
ENDTAB
  0
TABLE
  2
STYLE
 70
     2
  0
STYLE
  2
STANDARD
 70
     0
 40
0.0
 41
1.0
 50
0.0
 71
     0
 42
3.0
  3
romans.shx
  4
BIGFONT.SHX
  0
STYLE
  2
YOKO
 70
     0
 40
0.0
 41
1.0
 50
0.0
 71
     0
 42
3.0
  3
romans.shx
  4
extfont.shx
  0
ENDTAB
  0
TABLE
  2
VIEW
 70
     1
  0
VIEW
  2
OLE1
 70
     0
 40
151.76139577
 10
34.69074248
 20
22.5352825
 41
217.29911955
 11
0.0
 21
0.0
 31
1.0
 12
0.0
 22
0.0
 32
0.0
 42
50.0
 43
0.0
 44
0.0
 50
0.0
 71
     0
  0
ENDTAB
  0
TABLE
  2
UCS
 70
     0
  0
ENDTAB
  0
TABLE
  2
APPID
 70
     9
  0
APPID
  2
ACAD
 70
     0
  0
APPID
  2
GLOBAL
 70
     0
  0
APPID
  2
DETAIL
 70
     0
  0
APPID
  2
GRPNAME
 70
     0
  0
APPID
  2
GPARA
 70
     0
  0
APPID
  2
DCO15
 70
     0
  0
APPID
  2
ITEMNAME
 70
     0
  0
APPID
  2
GRADE_0
 70
     0
  0
APPID
  2
CONTENTBLOCKICON
 70
     0
  0
ENDTAB
  0
TABLE
  2
DIMSTYLE
 70
     2
  0
DIMSTYLE
  2
BIGT
 70
     0
  3

  4

  5

  6
OPEN
  7
OPEN
 40
1.0
 41
2.23
 42
0.5
 43
2.5
 44
1.0
 45
0.0
 46
0.0
 47
0.0
 48
0.0
140
2.8
141
0.0
142
0.0
143
25.4
144
1.0
145
0.0
146
1.0
147
1.0
 71
     0
 72
     0
 73
     0
 74
     0
 75
     0
 76
     0
 77
     3
 78
     8
170
     0
171
     2
172
     1
173
     1
174
     1
175
     0
176
   256
177
   256
178
    40
  0
DIMSTYLE
  2
BIGT$0
 70
     0
  3

  4
"
  5
OPEN
  6

  7

 40
1.0
 41
2.23
 42
0.5
 43
7.0
 44
1.0
 45
0.0
 46
0.0
 47
0.1
 48
0.1
140
3.0
141
0.0
142
0.0
143
0.0393701
144
1.0
145
0.0
146
0.71
147
1.0
 71
     0
 72
     0
 73
     0
 74
     0
 75
     0
 76
     0
 77
     3
 78
     8
170
     0
171
     2
172
     1
173
     0
174
     0
175
     0
176
     3
177
     3
178
    40
  0
ENDTAB
  0
ENDSEC
  0
SECTION
  2
BLOCKS
  0
BLOCK
  8
0
  2
$MODEL_SPACE
 70
     0
 10
0.0
 20
0.0
 30
0.0
  3
$MODEL_SPACE
  1

  0
ENDBLK
  5
1C
  8
0
  0
BLOCK
 67
     1
  8
0
  2
$PAPER_SPACE
 70
     0
 10
0.0
 20
0.0
 30
0.0
  3
$PAPER_SPACE
  1

  0
ENDBLK
  5
19
 67
     1
  8
0
  0
BLOCK
  8
0
  2
_OPEN
 70
     0
 10
0.0
 20
0.0
 30
0.0
  3
_OPEN
  1

  0
LINE
  5
595
  8
0
  6
BYBLOCK
 62
     0
 10
-1.0
 20
0.16666667
 30
0.0
 11
0.0
 21
0.0
 31
0.0
  0
LINE
  5
596
  8
0
  6
BYBLOCK
 62
     0
 10
-1.0
 20
-0.16666667
 30
0.0
 11
0.0
 21
0.0
 31
0.0
  0
LINE
  5
597
  8
0
  6
BYBLOCK
 62
     0
 10
0.0
 20
0.0
 30
0.0
 11
-1.0
 21
0.0
 31
0.0
  0
ENDBLK
  5
599
  8
0
  0
BLOCK
  8
0
  2
矢印なし
 70
     0
 10
0.0
 20
0.0
 30
0.0
  3
矢印なし
  1

  0
ENDBLK
  5
6E5
  8
0
  0
BLOCK
  8
0
  2
*D5
 70
     1
 10
0.0
 20
0.0
 30
0.0
  3
*D5
  1

  0
LINE
  5
1272
  8
250
  6
CONTINUOUS
 62
     3
 10
105.2074590995041
 20
-10.0
 30
0.0
 11
127.476230796129
 21
-10.0
 31
0.0
  0
LINE
  5
1273
  8
250
  6
CONTINUOUS
 62
     3
 10
105.2074590995041
 20
10.0
 30
0.0
 11
127.476230796129
 21
9.999999999999998
 31
0.0
  0
LINE
  5
1274
  8
250
  6
CONTINUOUS
 62
     3
 10
126.476230796129
 20
-7.770000000000001
 30
0.0
 11
126.476230796129
 21
7.769999999999998
 31
0.0
  0
INSERT
  5
1275
  8
250
 62
     3
  2
_OPEN
 10
126.476230796129
 20
-10.0
 30
0.0
 41
2.23
 42
2.23
 43
2.23
 50
270.0
  0
INSERT
  5
1276
  8
250
 62
     3
  2
_OPEN
 10
126.476230796129
 20
9.999999999999998
 30
0.0
 41
2.23
 42
2.23
 43
2.23
 50
90.0
  0
INSERT
  5
1277
  8
250
 62
    40
  2
*X12
 10
0.0
 20
0.0
 30
0.0
  0
POINT
  5
1278
  8
DEFPOINTS
 62
     0
 10
104.7074590995041
 20
-10.0
 30
0.0
  0
POINT
  5
1279
  8
DEFPOINTS
 62
     0
 10
104.7074590995041
 20
10.0
 30
0.0
  0
POINT
  5
127A
  8
DEFPOINTS
 62
     0
 10
126.476230796129
 20
9.999999999999998
 30
0.0
  0
ENDBLK
  5
1271
  8
0
  0
BLOCK
  8
0
  2
*D7
 70
     1
 10
0.0
 20
0.0
 30
0.0
  3
*D7
  1

  0
LINE
  5
13E2
  8
250
 62
     3
 10
84.40012207
 20
9.32499808
 30
0.0
 11
84.40012207
 21
22.71466442987291
 31
0.0
  0
LINE
  5
13E3
  8
250
 62
     3
 10
105.0
 20
9.799999999877826
 30
0.0
 11
105.0
 21
22.71466442987291
 31
0.0
  0
LINE
  5
13E4
  8
250
 62
     3
 10
86.63012207
 20
21.71466442987291
 30
0.0
 11
102.77
 21
21.71466442987291
 31
0.0
  0
INSERT
  5
13E5
  8
250
 62
     3
  2
_OPEN
 10
84.40012207
 20
21.71466442987291
 30
0.0
 41
2.23
 42
2.23
 43
2.23
 50
180.0
  0
INSERT
  5
13E6
  8
250
 62
     3
  2
_OPEN
 10
105.0
 20
21.71466442987291
 30
0.0
 41
2.23
 42
2.23
 43
2.23
  0
TEXT
  5
13E7
  8
250
  6
CONTINUOUS
 62
    40
 10
89.69113246357144
 20
22.71466442987291
 30
0.0
 40
3.0
  1
20.6
  7
YOKO
  0
POINT
  5
13E8
  8
DEFPOINTS
 62
     0
 10
84.40012207
 20
8.82499808
 30
0.0
  0
POINT
  5
13E9
  8
DEFPOINTS
 62
     0
 10
105.0
 20
9.299999999877826
 30
0.0
  0
POINT
  5
13EA
  8
DEFPOINTS
 62
     0
 10
105.0
 20
21.71466442987291
 30
0.0
  0
ENDBLK
  5
13EC
  8
0
  0
BLOCK
  8
0
  2
*D8
 70
     1
 10
0.0
 20
0.0
 30
0.0
  3
*D8
  1

  0
LINE
  5
13F1
  8
250
 62
     3
 10
105.0
 20
9.799999999877826
 30
0.0
 11
105.0
 21
19.33275390398861
 31
0.0
  0
LINE
  5
13F2
  8
250
 62
     3
 10
107.3
 20
9.799999999877826
 30
0.0
 11
107.3
 21
19.33275390398861
 31
0.0
  0
LINE
  5
13F3
  8
250
 62
     3
 10
105.0
 20
18.33275390398861
 30
0.0
 11
107.3
 21
18.33275390398861
 31
0.0
  0
LINE
  5
13F4
  8
250
 62
     3
 10
102.77
 20
18.33275390398861
 30
0.0
 11
100.54
 21
18.33275390398861
 31
0.0
  0
LINE
  5
13F5
  8
250
 62
     3
 10
109.53
 20
18.33275390398861
 30
0.0
 11
111.76
 21
18.33275390398861
 31
0.0
  0
INSERT
  5
13F6
  8
250
 62
     3
  2
_OPEN
 10
105.0
 20
18.33275390398861
 30
0.0
 41
2.23
 42
2.23
 43
2.23
  0
INSERT
  5
13F7
  8
250
 62
     3
  2
_OPEN
 10
107.3
 20
18.33275390398861
 30
0.0
 41
2.23
 42
2.23
 43
2.23
 50
180.0
  0
TEXT
  5
13F8
  8
250
  6
CONTINUOUS
 62
    40
 10
102.5696428571429
 20
20.83275390398861
 30
0.0
 40
3.0
  1
2.3
  7
YOKO
  0
POINT
  5
13F9
  8
DEFPOINTS
 62
     0
 10
105.0
 20
9.299999999877826
 30
0.0
  0
POINT
  5
13FA
  8
DEFPOINTS
 62
     0
 10
107.3
 20
9.299999999877826
 30
0.0
  0
POINT
  5
13FB
  8
DEFPOINTS
 62
     0
 10
107.3
 20
18.33275390398861
 30
0.0
  0
ENDBLK
  5
13FD
  8
0
  0
BLOCK
  8
0
  2
*D9
 70
     1
 10
0.0
 20
0.0
 30
0.0
  3
*D9
  1

  0
LINE
  5
1409
  8
250
 62
     3
 10
107.8
 20
5.6
 30
0.0
 11
114.1164415733394
 21
5.6
 31
0.0
  0
LINE
  5
140A
  8
250
 62
     3
 10
107.8
 20
-5.6
 30
0.0
 11
114.1164415733394
 21
-5.6
 31
0.0
  0
LINE
  5
140B
  8
250
 62
     3
 10
113.1164415733394
 20
3.37
 30
0.0
 11
113.1164415733394
 21
-3.37
 31
0.0
  0
INSERT
  5
140C
  8
250
 62
     3
  2
_OPEN
 10
113.1164415733394
 20
5.6
 30
0.0
 41
2.23
 42
2.23
 43
2.23
 50
90.0
  0
INSERT
  5
140D
  8
250
 62
     3
  2
_OPEN
 10
113.1164415733394
 20
-5.6
 30
0.0
 41
2.23
 42
2.23
 43
2.23
 50
270.0
  0
TEXT
  5
140E
  8
250
  6
CONTINUOUS
 62
    40
 10
118.6164415733394
 20
-6.366071428571431
 30
0.0
 40
3.0
  1
\U+220511.2
 50
90.0
  7
YOKO
  0
POINT
  5
140F
  8
DEFPOINTS
 62
     0
 10
107.3
 20
5.6
 30
0.0
  0
POINT
  5
1410
  8
DEFPOINTS
 62
     0
 10
107.3
 20
-5.6
 30
0.0
  0
POINT
  5
1411
  8
DEFPOINTS
 62
     0
 10
113.1164415733394
 20
-5.6
 30
0.0
  0
ENDBLK
  5
1413
  8
0
  0
BLOCK
  8
0
  2
*X12
 70
     1
 10
0.0
 20
0.0
 30
0.0
  3
*X12
  1

  0
TEXT
  5
168F
  8
250
  6
CONTINUOUS
 62
    40
 10
125.476230796129
 20
-4.223214285714292
 30
0.0
 40
3.0
  1
\U+2205
 50
90.0
  7
YOKO
  0
TEXT
  5
1690
  8
250
  6
CONTINUOUS
 62
    40
 10
125.476230796129
 20
-1.508928571428584
 30
0.0
 40
3.0
  1
20
 50
90.0
  7
YOKO
  0
ENDBLK
  5
1692
  8
0
  0
ENDSEC
  0
SECTION
  2
ENTITIES
  0
INSERT
  5
6E6
  8
245
  2
矢印なし
 10
175.62382697
 20
90.55123572
 30
0.0
  0
DIMENSION
  5
1235
  8
250
  6
CONTINUOUS
  2
*D5
 10
126.476230796129
 20
9.999999999999998
 30
0.0
 11
123.976230796129
 21
-0.0000000000000018
 31
0.0
 70
    32
  1
{\H3;\U+2205}<>
  3
BIGT$0
 13
104.7074590995041
 23
-10.0
 33
0.0
 14
104.7074590995041
 24
10.0
 34
0.0
 50
90.0
  0
LINE
  5
1391
  8
240
  6
CONTINUOUS
 10
105.0
 20
9.3
 30
0.0
 11
105.0
 21
0.0
 31
0.0
1001
GRPNAME
1000
PASTMD0X
  0
LINE
  5
1395
  8
241
  6
CONTINUOUS
 10
86.35005135
 20
10.15
 30
0.0
 11
86.35005135
 21
0.0
 31
0.0
1001
GRPNAME
1000
PASTMD0X
  0
LINE
  5
1396
  8
241
  6
CONTINUOUS
 10
87.71426491
 20
10.0
 30
0.0
 11
87.71426491
 21
0.0
 31
0.0
1001
GRPNAME
1000
PASTMD0X
  0
LINE
  5
1397
  8
240
 10
84.40012207
 20
7.99999812
 30
0.0
 11
84.40012207
 21
0.0
 31
0.0
  0
LINE
  5
139E
  8
240
  6
CONTINUOUS
 10
86.50005135
 20
-10.0
 30
0.0
 11
104.3
 21
-10.0
 31
0.0
1001
GRPNAME
1000
PASTMD0X
  0
ARC
  5
13AE
  8
240
  6
CONTINUOUS
 10
84.90012207
 20
-9.65
 30
0.0
 40
0.5
 50
179.99999998
 51
269.99999998
1001
GRPNAME
1000
PASTMD0X
  0
LINE
  5
13AF
  8
241
  6
CONTINUOUS
 10
87.71426491
 20
-10.0
 30
0.0
 11
87.71426491
 21
0.0
 31
0.0
1001
GRPNAME
1000
PASTMD0X
  0
LINE
  5
13B0
  8
241
  6
CONTINUOUS
 10
86.35005135
 20
-10.15
 30
0.0
 11
86.35005135
 21
0.0
 31
0.0
1001
GRPNAME
1000
PASTMD0X
  0
LINE
  5
13B1
  8
240
  6
CONTINUOUS
 10
86.35005135
 20
-10.15
 30
0.0
 11
86.50005135
 21
-10.0
 31
0.0
1001
GRPNAME
1000
PASTMD0X
  0
LINE
  5
13B2
  8
240
  6
CONTINUOUS
 10
84.90012207
 20
-10.15
 30
0.0
 11
86.35005135
 21
-10.15
 31
0.0
1001
GRPNAME
1000
PASTMD0X
  0
LINE
  5
13B4
  8
240
 10
84.40012207
 20
-7.99999812
 30
0.0
 11
84.40012207
 21
0.0
 31
0.0
  0
LINE
  5
13B5
  8
240
  6
CONTINUOUS
 10
84.40012207
 20
-9.65
 30
0.0
 11
84.40012207
 21
-7.99999812
 31
0.0
1001
GRPNAME
1000
PASTMD0X
  0
ARC
  5
13BB
  8
240
  6
CONTINUOUS
 10
104.3
 20
-9.3
 30
0.0
 40
0.6999999999999887
 50
269.99999997
 51
359.99999997
1001
GRPNAME
1000
PASTMD0X
  0
LINE
  5
13BD
  8
240
  6
CONTINUOUS
 10
105.0
 20
-9.3
 30
0.0
 11
105.0
 21
0.0
 31
0.0
1001
GRPNAME
1000
PASTMD0X
  0
LINE
  5
13C2
  8
240
  6
CONTINUOUS
 10
86.50005135
 20
10.0
 30
0.0
 11
104.3
 21
10.0
 31
0.0
1001
GRPNAME
1000
PASTMD0X
  0
LINE
  5
13CE
  8
240
  6
CONTINUOUS
 10
84.90012207
 20
10.15
 30
0.0
 11
86.35005135
 21
10.15
 31
0.0
1001
GRPNAME
1000
PASTMD0X
  0
LINE
  5
13CF
  8
240
  6
CONTINUOUS
 10
86.35005135
 20
10.15
 30
0.0
 11
86.50005135
 21
10.0
 31
0.0
1001
GRPNAME
1000
PASTMD0X
  0
LINE
  5
13D0
  8
240
  6
CONTINUOUS
 10
84.40012207
 20
9.65
 30
0.0
 11
84.40012207
 21
7.99999616
 31
0.0
1001
GRPNAME
1000
PASTMD0X
  0
ARC
  5
13D5
  8
240
  6
CONTINUOUS
 10
84.90012207
 20
9.65
 30
0.0
 40
0.5
 50
89.99999999
 51
179.99999999
1001
GRPNAME
1000
PASTMD0X
  0
ARC
  5
13DD
  8
240
  6
CONTINUOUS
 10
104.3
 20
9.3
 30
0.0
 40
0.6999999999999887
 50
359.99999999
 51
89.99999999
1001
GRPNAME
1000
PASTMD0X
  0
DIMENSION
  5
13DE
  8
250
  2
*D7
 10
105.0
 20
21.71466442987291
 30
0.0
 11
94.700061035
 21
24.21466442987291
 31
0.0
 70
    32
  1
20.6
  3
BIGT$0
 13
84.40012207
 23
8.82499808
 33
0.0
 14
105.0
 24
9.299999999877826
 34
0.0
1001
ACAD
1000
DSTYLE
1002
{
1070
   287
1070
     5
1070
   279
1070
     2
1002
}
  0
DIMENSION
  5
13ED
  8
250
  2
*D8
 10
107.3
 20
18.33275390398861
 30
0.0
 11
106.15
 21
22.33275390398861
 31
0.0
 70
    32
  3
BIGT$0
 13
105.0
 23
9.299999999877826
 33
0.0
 14
107.3
 24
9.299999999877826
 34
0.0
1001
ACAD
1000
DSTYLE
1002
{
1070
   287
1070
     5
1070
   279
1070
     2
1002
}
  0
LINE
  5
1402
  8
240
 10
105.0
 20
7.35
 30
0.0
 11
107.3
 21
5.6
 31
0.0
  0
LINE
  5
1403
  8
240
 10
105.0
 20
-7.35
 30
0.0
 11
107.3
 21
-5.6
 31
0.0
  0
LINE
  5
1404
  8
240
 10
107.3
 20
5.6
 30
0.0
 11
107.3
 21
-5.600000000000001
 31
0.0
  0
DIMENSION
  5
1405
  8
250
  2
*D9
 10
113.1164415733394
 20
-5.6
 30
0.0
 11
117.1164415733394
 21
0.0
 31
0.0
 70
    32
  1
\U+220511.2
  3
BIGT$0
 13
107.3
 23
5.6
 33
0.0
 14
107.3
 24
-5.6
 34
0.0
 50
90.0
1001
ACAD
1000
DSTYLE
1002
{
1070
   287
1070
     5
1070
   279
1070
     2
1002
}
  0
VIEWPORT
  5
22
 67
     1
  8
0
 10
261.51769912
 20
148.5
 30
0.0
 40
523.03539823
 41
297.0
 68
     1
 69
    -1
1001
ACAD
1000
MVIEW
1002
{
1070
    16
1010
0.0
1020
0.0
1030
0.0
1020
0.0
1030
0.0
1010
0.0
1020
0.0
1030
1.0
1020
0.0
1030
1.0
1040
0.0
1040
297.0
1040
261.51769912
1040
148.5
1040
50.0
1040
0.0
1040
0.0
1070
     0
1070
   100
1070
     1
1070
     1
1070
     0
1070
     0
1070
     0
1070
     0
1040
0.0
1040
0.0
1040
0.0
1040
1.0
1040
1.0
1040
10.0
1040
10.0
1070
     0
1002
{
1002
}
1002
}
  0
ENDSEC
  0
EOF
